Spider-Man: Far from Home (2019)
[ Download from this server (65.3 Kb) ]08.07.2019, 21:48

3.21 GB

Spider-Man: Far from Home 2019 Torrent Peter Parker had a very difficult year with a lot of problems. He had to take part in the confrontation of the defeated team of Avengers, and fight alongside the powerful Iron Man. The constant struggle exhausted the young boy. He was endowed with unique physical strength, but at the same time morally exhausted. It takes a short break, but the spider cannot leave the battlefield until the battle is over, and the winner is not named. The decisive battle was filled with terrible cruelty. Super heroes fought for life on earth and their own lives.

5d131d187be71f7f775d30e26dc2fec9.th.png a6e0610db2747e7cc94d285d1df4dd4b.th.png

General
Complete name : C:\Users\william\Documents\Spider-Man Far From Home 2019 V2 720p HD-TC H264 AC3 NO ADDS Will1869\Spider-Man Far From Home 2019 V2 720p HD-TC H264 AC3 NO ADDS Will1869.mp4
Format : MPEG-4
Format profile : Base Media / Version 2
Codec ID : mp42 (mp42/isom/avc1)
File size : 3.19 GiB
Duration : 1 h 56 min
Overall bit rate : 3 907 kb/s
Movie name : Spider-Man Far From Home 2019 V2 720p HD-TC H264 AC3 NO ADDS Will1869
Encoded date : UTC 2019-07-07 19:08:46
Tagged date : UTC 2019-07-07 19:33:13
Writing application : DVDFab 11.0.3.1
Cover : Yes

Video
ID : 1
Format : AVC
Format/Info : Advanced Video Codec
Format profile : Main@L3.1
Format settings : CABAC / 4 Ref Frames
Format settings, CABAC : Yes
Format settings, Reference frames : 4 frames
Format settings, GOP : M=1, N=12
Codec ID : avc1
Codec ID/Info : Advanced Video Coding
Duration : 1 h 56 min
Source duration : 1 h 56 min
Bit rate : 3 778 kb/s
Width : 1 280 pixels
Height : 720 pixels
Display aspect ratio : 16:9
Frame rate mode : Constant
Frame rate : 25.000 FPS
Standard : Component
Color space : YUV
Chroma subsampling : 4:2:0
Bit depth : 8 bits
Scan type : Progressive
Bits/(Pixel*Frame) : 0.164
Stream size : 3.08 GiB (97%)
Source stream size : 3.08 GiB (97%)
Encoded date : UTC 2019-07-07 19:08:46
Tagged date : UTC 2019-07-07 19:33:13
Color range : Limited
Color primaries : BT.709
Transfer characteristics : BT.709
Matrix coefficients : BT.709
Codec configuration box : avcC

Audio
ID : 2
Format : AC-3
Format/Info : Audio Coding 3
Commercial name : Dolby Digital
Codec ID : ac-3
Duration : 1 h 56 min
Bit rate mode : Constant
Bit rate : 128 kb/s
Channel(s) : 2 channels
Channel layout : L R
Sampling rate : 48.0 kHz
Frame rate : 31.250 FPS (1536 SPF)
Bit depth : 16 bits
Compression mode : Lossy
Stream size : 107 MiB (3%)
Title : ac3 2.0
Service kind : Complete Main
Default : Yes
Alternate group : 1
Encoded date : UTC 2019-07-07 19:08:46
Tagged date : UTC 2019-07-07 19:33:13

Spider-Man: Far from Home 2019 Torrent Many of them died, but each tried to deliver a decisive blow. Spider-man miraculously survived the deadly battle with Thanos, now it's time for the long-awaited rest, which he decided to spend with friends in London, enjoying the views of medieval castles. The journey began perfectly. They walked, had fun, for a time, forgetting about the past bloody events, until the spider was embroiled in the deadly adventure of the insane magician and the excellent hypnotist Quentin Beck, acting in the form of the famous Misterio.

Spider-Man: Far from Home 2019 Torrent His goal is to destroy the defenders of humanity and gain power over the world, where only his orders will be executed. The villain has the unique ability to play with the human brain, creating incredible realistic illusions. He has a lot of sophisticated weapons, but the main feature of the Mysterio considers the use of hallucinogenic gas, which is bad for the spider's instincts, knocking off the trail. Under Quentin's leadership, there is a team beyond the people who dream of revenge on the spider creature. They will not stop until they reach the goal and destroy the main defenders of humanity. Peter will have to accept the challenge, but he just wanted to rest.

Category: MOVIES | Added by: yuzade7
Views: 276 | Downloads: 56

We'll find any torrent file Just email us:overhear1995@gmail.com

Total comments: 0
Name *:
Email *:
All emoticons
Code *: